yjjlap / 影视 / [世界百大发现][Discovery超经典系列纪录...

分享

   

[世界百大发现][Discovery超经典系列纪录片][DVD中字][纳米]

2009-11-12  yjjlap

影片原名】[Discovery HD]-100.Greatest.Discoveries
【中文名称】探索频道-史上100个伟大发现
【影片类型】记录片
【影片时长】45Min
【国  家】美国
【出品公司】DHDT
【出品年代】2004

※※※※※※※ 详细信息 ※※※※※※※

【内容介绍】中文名称: 世界百大发现

  英文名称:100 Greatest Discoveries

  发行时间:2004年

  电视台:DHDT

  主持人:Bill Nye

  地区:美国

  语言:英语

  
  影片简介:

  我们都知道自己的血型,但是血型是如何被科学家发现的?哈雷慧星每隔76年飞临地球,而科学家何时才了解到这一点?恐龙化石第一次被发现是在什么时候?科学家几个世纪以来改变了我们的看法和生活方式。哪些是最重大的科学发现?Discovery频道制作了一套九集的纪录片,展现了8个科学领域中最杰出的100个发现。影片带我们回顾历史,再现了这些伟大科学成就诞生的故事。

  如果没有科学家们的努力今天这个世界将会怎样?从遗传学的微观世界到广袤深远的太空

  在这个系列剧中让我们一起回顾一下史上8个不同科学领域的重大发现

  主持人Bill Nye 讲述这100个重要发现并解释它们如何影响着当代世界.

  在他生动的讲述下,我们将了解这些伟大发现的由来 它们如何促进科学的发展和影响着我们的生活.

  一共9集

  1.天文学

  地心学说(公元前2000–公元前500)、日心学说(1543)、行星的轨道是椭圆形的(1605–1609)、发现木星的卫星(1609–1612)、预测哈雷彗星的轨道(1705–1758)、银河是个巨大的盘状星系、广义相对论(1915–1919)、银河系放射无线电波(1932)、宇宙正在扩张 (1924–1929)、宇宙微波背景幅射(1964)、行星绕行其他恒星(1995–2004)、伽玛射线爆发(1969–1997)、宇宙加速膨胀 (1998–2000)

  2.生物学

  微生物(1674)、细胞核(1831)、有丝分裂(1977)、细胞分化(1879)、克氏循环(1937)、粒腺体(19世纪晚期至今)、神经传导(18世纪晚期至今)、荷尔蒙(1903)、光合作用(1770)、生物的多样性(1935)

  3.物理学

  落体定律(1604)、万有引力定律(1666)、热力第二定律(1824–1850)、电磁学(1807–1873)、狭义相对论(1905)、质能互换定律(1905)、量子论(1900–1935)、光的本质(1704–1905)、中子(1935)、超导体(1911–1986)、夸克 (1962)、核能量(1666–1957)

  4.地球科学

  外核(1906)、内核(1930)、大陆漂移 (1911)、海底扩张(1950–1960)、板块学说(1960)、对流层和平流层(1890)、宇宙幅射(1911)、磁场倒转(1906)、周期性冰河时期(1930)、全球变暖(20世纪晚期)、地质变动(1830)、放射性定年法(1907)

  5.生命科学(起源与进化)

  恐龙因小行星撞击灭绝(1980)、发现恐龙化石(1820–1840)、模拟生命诞生环境(1953)、在深海热液喷发口发现新生物(1977)、伯吉斯页岩(1909)、物种的分类(1735)、物竞天择 (1858)、非洲古猿(1974)、莱托里的脚印(1978)、土麦头骨(2002)

  6.遗传学

  遗传法则(1850)、基因存在于染色体(1910–1920)、基因控生化事件(1930)、基因突变(1940)、DNA携带遗传物质 (1928,1944,1952)、DNA双股螺旋(1953)、信使 RNA(1960)、遗传密码(1960)、限制酵素(1950–1960)、RNA 选择性分裂(1976)、人类有20,000-25,000个基因(2003)

  7.医学

  人体解剖(1538)、血液循环 (1628)、血型(1902)、麻醉药(1842–1846)、X光(1895)、细菌理论(19世纪)、维生素(20世纪早期)、青霉素 (1920–1930)、磺胺类药剂(1930)、牛痘(1796)、胰岛素(20世纪20年代)、癌症基因研究(1975)、HIV(20世纪80年代)

  8.化学

  氧气(1770)、原子理论(1808)、原子组成分子(1811)、合成尿素(1828)、化学结构(1850)、化学元素周期表(1860–1870)、电解化学物质(1807–1810)、电子(1897)、电子的特性(1913)、原子有光特性 (1850)、放射性(1890–1900)、塑胶(1869 和1900)、富勒烯(1985)

  9.10大精选


※※※※※※※ 编码参数 ※※※※※※※

Format : AVI
     Format/Info : Audio Video Interleave
     File size : 1.37 GiB
     Duration : 44mn 22s
     Overall bit rate : 4 411 Kbps
  Video
     Format : MPEG-4 Visual
     Format settings, BVOP : Yes
     Format settings, QPel : No
     Format settings, GMC : No warppoints
     Format settings, Matrix : Default
     Muxing mode : Packed bitstream
     Codec ID : DX50
     Codec ID/Hint : DivX 5
     Duration : 44mn 22s
     Bit rate : 4 015 Kbps
     Width : 1 280 pixels
     Height : 720 pixels
     Display aspect ratio : 16/9
     Frame rate : 29.970 fps
     Resolution : 24 bits
     Colorimetry : 4:2:0
     Scan type : Progressive
     Bits/(Pixel*Frame) : 0.145
     Stream size : 1.24 GiB (91%)
     Title : Video
     Writing library : DivX 5.2.1 Alpha (UTC 2004-09-08)
  Audio
     Format : AC-3
     Format/Info : Audio Coding 3
     Codec ID : 2000
     Duration : 44mn 22s
     Bit rate mode : Constant
     Bit rate : 384 Kbps
     Channel(s) : 2 channels
     Channel positions : L R
     Sampling rate : 48.0 KHz
     Stream size : 122 MiB (9%)
     Alignment : Split accross interleaves
     Interleave, duration : 33 ms (1.00 video frame)
     Interleave, preload duration : 500 ms
     Title : Audio

~~~~~~~~~~~~~~~~~~~~~~~~~~~~~~~~~~~~~~~~~

下载文件

1

 



2

 


3
 


4
 


5
 


6
 


7
 


8
 


9
 
 




字幕:

 

    本站是提供个人知识管理的网络存储空间,所有内容均由用户发布,不代表本站观点。请注意甄别内容中的联系方式、诱导购买等信息,谨防诈骗。如发现有害或侵权内容,请点击一键举报。

    来自: yjjlap > 《影视》

    0条评论

    发表

    请遵守用户 评论公约

    类似文章 更多
    喜欢该文的人也喜欢 更多

    ×
    ×

    ¥.00

    微信或支付宝扫码支付:

    开通即同意《个图VIP服务协议》

    全部>>